  0
SECTION
  2
HEADER
  9
$ACADVER
  1
AC1014
  9
$ACADMAINTVER
 70
     0
  9
$DWGCODEPAGE
  3
ANSI_1252
  9
$INSBASE
 10
0.0
 20
0.0
 30
0.0
  9
$EXTMIN
 10
-402.55
 20
-47.23
 30
0.0
  9
$EXTMAX
 10
403.04
 20
271.87
 30
0.0
  9
$LIMMIN
 10
0.0
 20
0.0
  9
$LIMMAX
 10
12.0
 20
9.0
  9
$ORTHOMODE
 70
     0
  9
$REGENMODE
 70
     1
  9
$FILLMODE
 70
     1
  9
$QTEXTMODE
 70
     0
  9
$MIRRTEXT
 70
     1
  9
$DRAGMODE
 70
     2
  9
$LTSCALE
 40
1.0
  9
$OSMODE
 70
     0
  9
$ATTMODE
 70
     1
  9
$TEXTSIZE
 40
0.2
  9
$TRACEWID
 40
0.05
  9
$TEXTSTYLE
  7
STANDARD
  9
$CLAYER
  8
0
  9
$CELTYPE
  6
CONTINUOUS
  9
$CECOLOR
 62
   256
  9
$CELTSCALE
 40
1.0
  9
$DELOBJ
 70
     1
  9
$DISPSILH
 70
     0
  9
$DIMSCALE
 40
1.0
  9
$DIMASZ
 40
0.18
  9
$DIMEXO
 40
0.0625
  9
$DIMDLI
 40
0.38
  9
$DIMRND
 40
0.0
  9
$DIMDLE
 40
0.0
  9
$DIMEXE
 40
0.18
  9
$DIMTP
 40
0.0
  9
$DIMTM
 40
0.0
  9
$DIMTXT
 40
0.18
  9
$DIMCEN
 40
0.09
  9
$DIMTSZ
 40
0.0
  9
$DIMTOL
 70
     0
  9
$DIMLIM
 70
     0
  9
$DIMTIH
 70
     1
  9
$DIMTOH
 70
     1
  9
$DIMSE1
 70
     0
  9
$DIMSE2
 70
     0
  9
$DIMTAD
 70
     0
  9
$DIMZIN
 70
     0
  9
$DIMBLK
  1

  9
$DIMASO
 70
     1
  9
$DIMSHO
 70
     1
  9
$DIMPOST
  1

  9
$DIMAPOST
  1

  9
$DIMALT
 70
     0
  9
$DIMALTD
 70
     2
  9
$DIMALTF
 40
25.4
  9
$DIMLFAC
 40
1.0
  9
$DIMTOFL
 70
     0
  9
$DIMTVP
 40
0.0
  9
$DIMTIX
 70
     0
  9
$DIMSOXD
 70
     0
  9
$DIMSAH
 70
     0
  9
$DIMBLK1
  1

  9
$DIMBLK2
  1

  9
$DIMSTYLE
  2
STANDARD
  9
$DIMCLRD
 70
     0
  9
$DIMCLRE
 70
     0
  9
$DIMCLRT
 70
     0
  9
$DIMTFAC
 40
1.0
  9
$DIMGAP
 40
0.09
  9
$DIMJUST
 70
     0
  9
$DIMSD1
 70
     0
  9
$DIMSD2
 70
     0
  9
$DIMTOLJ
 70
     1
  9
$DIMTZIN
 70
     0
  9
$DIMALTZ
 70
     0
  9
$DIMALTTZ
 70
     0
  9
$DIMFIT
 70
     3
  9
$DIMUPT
 70
     0
  9
$DIMUNIT
 70
     2
  9
$DIMDEC
 70
     4
  9
$DIMTDEC
 70
     4
  9
$DIMALTU
 70
     2
  9
$DIMALTTD
 70
     2
  9
$DIMTXSTY
  7
STANDARD
  9
$DIMAUNIT
 70
     0
  9
$LUNITS
 70
     2
  9
$LUPREC
 70
     4
  9
$SKETCHINC
 40
0.1
  9
$FILLETRAD
 40
0.0
  9
$AUNITS
 70
     0
  9
$AUPREC
 70
     0
  9
$MENU
  1
acad
  9
$ELEVATION
 40
0.0
  9
$PELEVATION
 40
0.0
  9
$THICKNESS
 40
0.0
  9
$LIMCHECK
 70
     0
  9
$BLIPMODE
 70
     1
  9
$CHAMFERA
 40
0.0
  9
$CHAMFERB
 40
0.0
  9
$CHAMFERC
 40
0.0
  9
$CHAMFERD
 40
0.0
  9
$SKPOLY
 70
     0
  9
$TDCREATE
 40
2451981.600729167
  9
$TDUPDATE
 40
2451981.600729167
  9
$TDINDWG
 40
0.0000000000
  9
$TDUSRTIMER
 40
0.0000000000
  9
$USRTIMER
 70
     1
  9
$ANGBASE
 50
0.0
  9
$ANGDIR
 70
     0
  9
$PDMODE
 70
     0
  9
$PDSIZE
 40
0.0
  9
$PLINEWID
 40
0.0
  9
$COORDS
 70
     0
  9
$SPLFRAME
 70
     0
  9
$SPLINETYPE
 70
     6
  9
$SPLINESEGS
 70
    10
  9
$ATTDIA
 70
     0
  9
$ATTREQ
 70
     1
  9
$HANDLING
 70
     1
  9
$HANDSEED
  5
119
  9
$SURFTAB1
 70
     6
  9
$SURFTAB2
 70
     6
  9
$SURFTYPE
 70
     6
  9
$SURFU
 70
     6
  9
$SURFV
 70
     6
  9
$UCSNAME
  2

  9
$UCSORG
 10
0.0
 20
0.0
 30
0.0
  9
$UCSXDIR
 10
1.0
 20
0.0
 30
0.0
  9
$UCSYDIR
 10
0.0
 20
1.0
 30
0.0
  9
$PUCSNAME
  2

  9
$PUCSORG
 10
0.0
 20
0.0
 30
0.0
  9
$PUCSXDIR
 10
1.0
 20
0.0
 30
0.0
  9
$PUCSYDIR
 10
0.0
 20
1.0
 30
0.0
  9
$USERI1
 70
     0
  9
$USERI2
 70
     0
  9
$USERI3
 70
     0
  9
$USERI4
 70
     0
  9
$USERI5
 70
     0
  9
$USERR1
 40
0.0
  9
$USERR2
 40
0.0
  9
$USERR3
 40
0.0
  9
$USERR4
 40
0.0
  9
$USERR5
 40
0.0
  9
$WORLDVIEW
 70
     1
  9
$SHADEDGE
 70
     3
  9
$SHADEDIF
 70
    70
  9
$TILEMODE
 70
     1
  9
$MAXACTVP
 70
    16
  9
$PINSBASE
 10
0.0
 20
0.0
 30
0.0
  9
$PLIMCHECK
 70
     0
  9
$PEXTMIN
 10
-1.000000E+20
 20
-1.000000E+20
 30
-1.000000E+20
  9
$PEXTMAX
 10
-1.000000E+20
 20
-1.000000E+20
 30
-1.000000E+20
  9
$PLIMMIN
 10
0.0
 20
0.0
  9
$PLIMMAX
 10
12.0
 20
9.0
  9
$UNITMODE
 70
     0
  9
$VISRETAIN
 70
     0
  9
$PLINEGEN
 70
     1
  9
$PSLTSCALE
 70
     0
  9
$TREEDEPTH
 70
  3020
  9
$PICKSTYLE
 70
     1
  9
$CMLSTYLE
  2
STANDARD
  9
$CMLJUST
 70
     0
  9
$CMLSCALE
 40
1.0
  9
$PROXYGRAPHICS
 70
     0
  9
$MEASUREMENT
 70
     0
  0
ENDSEC
  0
SECTION
  2
CLASSES
  0
CLASS
  1
LWPOLYLINE
  2
AcDbPolyline
  3
"AutoCAD"
 90
        0
280
     0
281
     1
  0
CLASS
  1
IMAGE
  2
AcDbRasterImage
  3
ISM
 90
      127
280
     0
281
     1
  0
CLASS
  1
OLE2FRAME
  2
AcDbOle2Frame
  3
""
 90
        0
280
     0
281
     1
  0
CLASS
  1
HATCH
  2
AcDbHatch
  3
"ACAD_SEDONA"
 90
        0
280
     0
281
     1
  0
CLASS
  1
DICTIONARYVAR
  2
AcDbDictionaryVar
  3
"AutoCAD"
 90
        0
280
     0
281
     0
  0
CLASS
  1
RASTERVARIABLES
  2
AcDbRasterVariables
  3
ISM
 90
        0
280
     0
281
     0
  0
CLASS
  1
IMAGEDEF
  2
AcDbRasterImageDef
  3
ISM
 90
        0
280
     0
281
     0
  0
CLASS
  1
IMAGEDEF_REACTOR
  2
AcDbRasterImageDefReactor
  3
ISM
 90
        1
280
     0
281
     0
  0
CLASS
  1
IDBUFFER
  2
AcDbIdBuffer
  3
"Acad"
 90
        0
280
     0
281
     0
  0
CLASS
  1
SPATIAL_FILTER
  2
AcDbSpatialFilter
  3
"Acad"
 90
        0
280
     0
281
     0
  0
CLASS
  1
XRECORD
  2
AcDbXrecord
  3
"<Built In>"
 90
        0
280
     0
281
     0
  0
CLASS
  1
SORTENTSTABLE
  2
AcDbSortentsTable
  3
"AutoCAD"
 90
        0
280
     0
281
     0
  0
CLASS
  1
LAYER_INDEX
  2
AcDbLayerIndex
  3
"Acad"
 90
        0
280
     0
281
     0
  0
CLASS
  1
SPATIAL_INDEX
  2
AcDbSpatialIndex
  3
"Acad"
 90
        0
280
     0
281
     0
  0
CLASS
  1
OBJECT_PTR
  2
CAseDLPNTableRecord
  3
"ASE-LPNTableRecord"
 90
        1
280
     0
281
     0
  0
ENDSEC
  0
SECTION
  2
TABLES
  0
TABLE
  2
VPORT
  5
7
100
AcDbSymbolTable
 70
     1
  0
VPORT
  5
118
100
AcDbSymbolTableRecord
100
AcDbViewportTableRecord
  2
*ACTIVE
 70
     0
 10
0.0
 20
0.0
 11
1.0
 21
1.0
 12
0.0
 22
0.0
 13
0.0
 23
0.0
 14
0.0
 24
0.0
 15
0.0
 25
0.0
 16
0.0
 26
0.0
 36
1.0
 17
-19.653155
 27
78.345
 37
0.0
 40
530.93
 41
1.503049
 42
50.0
 43
10.0
 44
0.0
 50
0.0
 51
0.0
 71
     0
 72
   100
 73
     1
 74
     0
 75
     0
 76
     0
 77
     0
 78
     0
  0
ENDTAB
  0
TABLE
  2
LTYPE
  5
4
100
AcDbSymbolTable
 70
     9
  0
LTYPE
  5
11
100
AcDbSymbolTableRecord
100
AcDbLinetypeTableRecord
  2
BYBLOCK
 70
     0
  3

 72
    65
 73
     0
 40
0.0
  0
LTYPE
  5
12
100
AcDbSymbolTableRecord
100
AcDbLinetypeTableRecord
  2
BYLAYER
 70
     0
  3

 72
    65
 73
     0
 40
0.0
  0
LTYPE
  5
13
100
AcDbSymbolTableRecord
100
AcDbLinetypeTableRecord
  2
CONTINUOUS
 70
     0
  3
Solid line
 72
    65
 73
     0
 40
0.0
  0
LTYPE
  5
22
100
AcDbSymbolTableRecord
100
AcDbLinetypeTableRecord
  2
DOT
 70
    64
  3
 . . . . . . . . . . . . . . . . . . . . . . . . . . . . . . . .
 72
    65
 73
     2
 40
0.25
 49
0.0
 74
     0
 49
-0.25
 74
     0
  0
LTYPE
  5
23
100
AcDbSymbolTableRecord
100
AcDbLinetypeTableRecord
  2
HIDDEN
 70
    64
  3
__ __ __ __ __ __ __ __ __ __ __ __ __ __ __ __ __ __ __ __ __ 
 72
    65
 73
     2
 40
0.375
 49
0.25
 74
     0
 49
-0.125
 74
     0
  0
LTYPE
  5
24
100
AcDbSymbolTableRecord
100
AcDbLinetypeTableRecord
  2
DASHED
 70
    64
  3
__ __ __ __ __ __ __ __ __ __ __ __ __ __ __ __ __ __ __ __ __
 72
    65
 73
     2
 40
0.75
 49
0.5
 74
     0
 49
-0.25
 74
     0
  0
LTYPE
  5
25
100
AcDbSymbolTableRecord
100
AcDbLinetypeTableRecord
  2
DASHDOT
 70
    64
  3
__ . __ . __ . __ . __ . __ . __ . __ . __ . __ . __ . __ . _
 72
    65
 73
     4
 40
1.0
 49
0.5
 74
     0
 49
-0.25
 74
     0
 49
0.0
 74
     0
 49
-0.25
 74
     0
  0
LTYPE
  5
26
100
AcDbSymbolTableRecord
100
AcDbLinetypeTableRecord
  2
DIVIDE
 70
    64
  3
____ . . ____ . . ____ . . ____ . . ____ . . ____ . . ____ . .
 72
    65
 73
     6
 40
1.25
 49
0.5
 74
     0
 49
-0.25
 74
     0
 49
0.0
 74
     0
 49
-0.25
 74
     0
 49
0.0
 74
     0
 49
-0.25
 74
     0
  0
LTYPE
  5
27
100
AcDbSymbolTableRecord
100
AcDbLinetypeTableRecord
  2
CENTER
 70
    64
  3
____ _ ____ _ ____ _ ____ _ ____ _ ____ _ ____ _ ____ _ ____ _
 72
    65
 73
     4
 40
2.0
 49
1.25
 74
     0
 49
-0.25
 74
     0
 49
0.25
 74
     0
 49
-0.25
 74
     0
  0
ENDTAB
  0
TABLE
  2
LAYER
  5
2
100
AcDbSymbolTable
 70
     5
  0
LAYER
  5
14
102
{ACAD_XDICTIONARY
360
5F205F5F5F5F205F
102
}
100
AcDbSymbolTableRecord
100
AcDbLayerTableRecord
  2
0
 70
     0
 62
     7
  6
CONTINUOUS
  0
LAYER
  5
2A
102
{ACAD_XDICTIONARY
360
5F205F5F5F5F205F
102
}
100
AcDbSymbolTableRecord
100
AcDbLayerTableRecord
  2
LAYER_1
 70
    64
 62
     7
  6
CONTINUOUS
  0
LAYER
  5
F3
102
{ACAD_XDICTIONARY
360
5F205F5F5F5F205F
102
}
100
AcDbSymbolTableRecord
100
AcDbLayerTableRecord
  2
WALLS
 70
    64
 62
     7
  6
CONTINUOUS
  0
LAYER
  5
F6
102
{ACAD_XDICTIONARY
360
5F205F5F5F5F205F
102
}
100
AcDbSymbolTableRecord
100
AcDbLayerTableRecord
  2
DIMENSIONS
 70
    64
 62
     7
  6
CONTINUOUS
  0
LAYER
  5
F9
102
{ACAD_XDICTIONARY
360
5F205F5F5F5F205F
102
}
100
AcDbSymbolTableRecord
100
AcDbLayerTableRecord
  2
DEFPOINTS
 70
    64
 62
     7
  6
CONTINUOUS
  0
ENDTAB
  0
TABLE
  2
STYLE
  5
3
100
AcDbSymbolTable
 70
     3
  0
STYLE
  5
17
100
AcDbSymbolTableRecord
100
AcDbTextStyleTableRecord
  2
STANDARD
 70
     0
 40
0.0
 41
1.0
 50
0.0
 71
     0
 42
0.0
  3
txt
  4

  0
STYLE
  5
F4
100
AcDbSymbolTableRecord
100
AcDbTextStyleTableRecord
  2
ROMANS
 70
     0
 40
0.2
 41
1.0
 50
0.0
 71
     0
 42
0.2
  3
ROMANS
  4

  0
STYLE
  5
F8
100
AcDbSymbolTableRecord
100
AcDbTextStyleTableRecord
  2
MONOTXT
 70
     0
 40
0.0
 41
1.0
 50
0.0
 71
     0
 42
0.2
  3
MONOTXT
  4

  0
ENDTAB
  0
TABLE
  2
VIEW
  5
5
100
AcDbSymbolTable
 70
     3
  0
VIEW
  5
115
102
{ACAD_XDICTIONARY
360
F43F
102
}
100
AcDbSymbolTableRecord
100
AcDbViewTableRecord
  2
1$50
 70
     0
 40
7744.78
 10
0.0
 20
0.0
 41
14150.0
 11
0.0
 21
0.0
 31
1.0
 12
4344.62
 22
5620.44
 32
0.0
 42
50.0
 43
77447.79
 44
0.0
 50
0.0
 71
     0
  0
VIEW
  5
116
102
{ACAD_XDICTIONARY
360
F43F
102
}
100
AcDbSymbolTableRecord
100
AcDbViewTableRecord
  2
1$20
 70
     0
 40
10980.0
 10
0.0
 20
0.0
 41
13370.0
 11
0.0
 21
0.0
 31
1.0
 12
1765.36
 22
-388.95
 32
0.0
 42
50.0
 43
109800.0
 44
0.0
 50
0.0
 71
     0
  0
VIEW
  5
117
102
{ACAD_XDICTIONARY
360
F43F
102
}
100
AcDbSymbolTableRecord
100
AcDbViewTableRecord
  2
SECTIO
 70
     0
 40
6060.25
 10
0.0
 20
0.0
 41
2990.0
 11
0.0
 21
0.0
 31
1.0
 12
10808.11
 22
-1459.285
 32
0.0
 42
50.0
 43
60602.5
 44
0.0
 50
0.0
 71
     0
  0
ENDTAB
  0
TABLE
  2
UCS
  5
6
100
AcDbSymbolTable
 70
     0
  0
ENDTAB
  0
TABLE
  2
APPID
  5
8
100
AcDbSymbolTable
 70
     1
  0
APPID
  5
16
100
AcDbSymbolTableRecord
100
AcDbRegAppTableRecord
  2
ACAD
 70
     0
  0
ENDTAB
  0
TABLE
  2
DIMSTYLE
  5
9
100
AcDbSymbolTable
 70
     2
  0
DIMSTYLE
105
18
100
AcDbSymbolTableRecord
100
AcDbDimStyleTableRecord
  2
STANDARD
 70
     0
  3

  4

  5

  6

  7

 40
1.0
 41
0.18
 42
0.0625
 43
0.38
 44
0.18
 45
0.0
 46
0.0
 47
0.0
 48
0.0
140
0.18
141
0.09
142
0.0
143
25.4
144
1.0
145
0.0
146
1.0
147
0.09
 71
     0
 72
     0
 73
     1
 74
     1
 75
     0
 76
     0
 77
     0
 78
     0
170
     0
171
     2
172
     0
173
     0
174
     0
175
     0
176
     0
177
     0
178
     0
270
     2
271
     4
272
     4
273
     2
274
     2
340
17
275
     0
280
     0
281
     0
282
     0
283
     1
284
     0
285
     0
286
     0
287
     0
288
     0
  0
DIMSTYLE
105
F7
100
AcDbSymbolTableRecord
100
AcDbDimStyleTableRecord
  2
MSADIM
 70
     0
  3

  4

  5

  6

  7

 40
1.0
 41
8.0
 42
4.0
 43
6.0
 44
4.0
 45
0.0
 46
0.0
 47
0.0
 48
0.0
140
8.0
141
2.67
142
0.0
143
0.03937
144
1.0
145
6.0
146
1.0
147
6.0
 71
     0
 72
     0
 73
     0
 74
     0
 75
     0
 76
     0
 77
     1
 78
     8
170
     0
171
     2
172
     0
173
     0
174
     0
175
     0
176
     0
177
     0
178
     4
270
     2
271
     1
272
     1
273
     7
274
     1
340
F8
275
     0
280
     0
281
     0
282
     0
283
     1
284
     8
285
     0
286
     8
287
     3
288
     0
  0
ENDTAB
  0
TABLE
  2
BLOCK_RECORD
  5
1
100
AcDbSymbolTable
 70
     2
  0
BLOCK_RECORD
  5
A
100
AcDbSymbolTableRecord
100
AcDbBlockTableRecord
  2
*MODEL_SPACE
  0
BLOCK_RECORD
  5
B
100
AcDbSymbolTableRecord
100
AcDbBlockTableRecord
  2
*PAPER_SPACE
  0
BLOCK_RECORD
  5
FA
102
{ACAD_XDICTIONARY
360
DE78022400000020
102
}
100
AcDbSymbolTableRecord
100
AcDbBlockTableRecord
  2
*D0
  0
BLOCK_RECORD
  5
108
102
{ACAD_XDICTIONARY
360
DE78022400000020
102
}
100
AcDbSymbolTableRecord
100
AcDbBlockTableRecord
  2
*D1
  0
ENDTAB
  0
ENDSEC
  0
SECTION
  2
BLOCKS
  0
BLOCK
  5
D
100
AcDbEntity
  8
0
100
AcDbBlockBegin
  2
*MODEL_SPACE
 70
     0
 10
0.0
 20
0.0
 30
0.0
  3
*MODEL_SPACE
  1

  0
ENDBLK
  5
E
100
AcDbEntity
  8
0
100
AcDbBlockEnd
  0
BLOCK
  5
F
100
AcDbEntity
 67
     1
  8
0
100
AcDbBlockBegin
  2
*PAPER_SPACE
 70
     0
 10
0.0
 20
0.0
 30
0.0
  3
*PAPER_SPACE
  1

  0
ENDBLK
  5
10
100
AcDbEntity
 67
     1
  8
0
100
AcDbBlockEnd
  0
BLOCK
  5
FB
100
AcDbEntity
  8
DIMENSIONS
  6
CONTINUOUS
 62
     4
100
AcDbBlockBegin
  2
*D0
 70
     1
 10
0.0
 20
0.0
 30
0.0
  3
*N0
  1

  0
LINE
  5
FC
100
AcDbEntity
  8
DIMENSIONS
  6
CONTINUOUS
 62
     4
100
AcDbLine
 10
-354.107783
 20
203.67046
 30
0.0
 11
-354.107783
 21
257.87046
 31
0.0
  0
LINE
  5
FD
100
AcDbEntity
  8
DIMENSIONS
  6
CONTINUOUS
 62
     4
100
AcDbLine
 10
-149.107661
 20
203.67046
 30
0.0
 11
-149.107661
 21
257.87046
 31
0.0
  0
LINE
  5
FE
100
AcDbEntity
  8
DIMENSIONS
  6
CONTINUOUS
 62
     4
100
AcDbLine
 10
-354.107783
 20
253.87046
 30
0.0
 11
-149.107661
 21
253.87046
 31
0.0
  0
SOLID
  5
FF
100
AcDbEntity
  8
DIMENSIONS
  6
CONTINUOUS
 62
     4
100
AcDbTrace
 10
-346.107783
 20
252.53546
 30
0.0
 11
-354.107783
 21
253.87046
 31
0.0
 12
-346.107783
 22
252.53546
 32
0.0
 13
-346.107783
 23
255.20546
 33
0.0
  0
SOLID
  5
100
100
AcDbEntity
  8
DIMENSIONS
  6
CONTINUOUS
 62
     4
100
AcDbTrace
 10
-157.107661
 20
255.20546
 30
0.0
 11
-149.107661
 21
253.87046
 31
0.0
 12
-157.107661
 22
255.20546
 32
0.0
 13
-157.107661
 23
252.53546
 33
0.0
  0
MTEXT
  5
101
100
AcDbEntity
  8
DIMENSIONS
  6
CONTINUOUS
 62
     4
100
AcDbMText
 10
-251.605
 20
263.86999
 30
0.0
 40
8.0
 41
91.93485
 71
     5
 72
     1
  1
{\A0;205}
  7
MONOTXT
210
0.0
220
0.0
230
1.0
  0
POINT
  5
102
100
AcDbEntity
  8
DEFPOINTS
  6
BYBLOCK
 62
     0
 48
0.0
100
AcDbPoint
 10
-354.107783
 20
253.87046
 30
0.0
  0
POINT
  5
103
100
AcDbEntity
  8
DEFPOINTS
  6
BYBLOCK
 62
     0
 48
0.0
100
AcDbPoint
 10
-149.107661
 20
199.67046
 30
0.0
  0
POINT
  5
104
100
AcDbEntity
  8
DEFPOINTS
  6
BYBLOCK
 62
     0
 48
0.0
100
AcDbPoint
 10
-354.107783
 20
199.67046
 30
0.0
  0
POINT
  5
105
100
AcDbEntity
  8
DEFPOINTS
  6
BYBLOCK
 62
     0
 48
0.0
100
AcDbPoint
 10
-251.605
 20
263.86999
 30
0.0
  0
ENDBLK
  5
106
100
AcDbEntity
  8
DIMENSIONS
  6
CONTINUOUS
 62
     4
100
AcDbBlockEnd
  0
BLOCK
  5
109
100
AcDbEntity
  8
DIMENSIONS
  6
CONTINUOUS
 62
     4
100
AcDbBlockBegin
  2
*D1
 70
     1
 10
0.0
 20
0.0
 30
0.0
  3
*N1
  1

  0
LINE
  5
10A
100
AcDbEntity
  8
DIMENSIONS
  6
CONTINUOUS
 62
     4
100
AcDbLine
 10
115.892217
 20
203.670582
 30
0.0
 11
115.892217
 21
257.87046
 31
0.0
  0
LINE
  5
10B
100
AcDbEntity
  8
DIMENSIONS
  6
CONTINUOUS
 62
     4
100
AcDbLine
 10
-149.107661
 20
253.87046
 30
0.0
 11
115.892217
 21
253.87046
 31
0.0
  0
SOLID
  5
10C
100
AcDbEntity
  8
DIMENSIONS
  6
CONTINUOUS
 62
     4
100
AcDbTrace
 10
-141.107661
 20
252.53546
 30
0.0
 11
-149.107661
 21
253.87046
 31
0.0
 12
-141.107661
 22
252.53546
 32
0.0
 13
-141.107661
 23
255.20546
 33
0.0
  0
SOLID
  5
10D
100
AcDbEntity
  8
DIMENSIONS
  6
CONTINUOUS
 62
     4
100
AcDbTrace
 10
107.892217
 20
255.20546
 30
0.0
 11
115.892217
 21
253.87046
 31
0.0
 12
107.892217
 22
255.20546
 32
0.0
 13
107.892217
 23
252.53546
 33
0.0
  0
MTEXT
  5
10E
100
AcDbEntity
  8
DIMENSIONS
  6
CONTINUOUS
 62
     4
100
AcDbMText
 10
-16.615
 20
263.86999
 30
0.0
 40
8.0
 41
91.45485
 71
     5
 72
     1
  1
{\A0;265}
  7
MONOTXT
210
0.0
220
0.0
230
1.0
  0
POINT
  5
10F
100
AcDbEntity
  8
DEFPOINTS
  6
BYBLOCK
 62
     0
 48
0.0
100
AcDbPoint
 10
-149.107661
 20
253.87046
 30
0.0
  0
POINT
  5
110
100
AcDbEntity
  8
DEFPOINTS
  6
BYBLOCK
 62
     0
 48
0.0
100
AcDbPoint
 10
115.892217
 20
199.670582
 30
0.0
  0
POINT
  5
111
100
AcDbEntity
  8
DEFPOINTS
  6
BYBLOCK
 62
     0
 48
0.0
100
AcDbPoint
 10
-149.107661
 20
199.67046
 30
0.0
  0
POINT
  5
112
100
AcDbEntity
  8
DEFPOINTS
  6
BYBLOCK
 62
     0
 48
0.0
100
AcDbPoint
 10
-16.615
 20
263.86999
 30
0.0
  0
ENDBLK
  5
113
100
AcDbEntity
  8
DIMENSIONS
  6
CONTINUOUS
 62
     4
100
AcDbBlockEnd
  0
ENDSEC
  0
SECTION
  2
ENTITIES
  0
ARC
  5
2B
100
AcDbEntity
  8
LAYER_1
  6
CONTINUOUS
 62
     7
100
AcDbCircle
 10
-398.307857
 20
-11.159526
 30
0.0
 40
4.25
210
0.0
220
0.0
230
1.0
100
AcDbArc
 50
180.0
 51
360.0
  0
ARC
  5
2C
100
AcDbEntity
  8
LAYER_1
  6
CONTINUOUS
 62
     7
100
AcDbCircle
 10
-398.307857
 20
-11.159526
 30
0.0
 40
4.25
210
0.0
220
0.0
230
1.0
100
AcDbArc
 50
0.0
 51
180.0
  0
ARC
  5
2D
100
AcDbEntity
  8
LAYER_1
  6
CONTINUOUS
 62
     7
100
AcDbCircle
 10
-392.307857
 20
63.080433
 30
0.0
 40
4.25
210
0.0
220
0.0
230
1.0
100
AcDbArc
 50
180.0
 51
360.0
  0
ARC
  5
2E
100
AcDbEntity
  8
LAYER_1
  6
CONTINUOUS
 62
     7
100
AcDbCircle
 10
-392.307857
 20
63.080433
 30
0.0
 40
4.25
210
0.0
220
0.0
230
1.0
100
AcDbArc
 50
0.0
 51
180.0
  0
ARC
  5
2F
100
AcDbEntity
  8
LAYER_1
  6
CONTINUOUS
 62
     7
100
AcDbCircle
 10
-389.137936
 20
93.600392
 30
0.0
 40
4.25
210
0.0
220
0.0
230
1.0
100
AcDbArc
 50
180.0
 51
360.0
  0
ARC
  5
30
100
AcDbEntity
  8
LAYER_1
  6
CONTINUOUS
 62
     7
100
AcDbCircle
 10
-389.137936
 20
93.600392
 30
0.0
 40
4.25
210
0.0
220
0.0
230
1.0
100
AcDbArc
 50
0.0
 51
180.0
  0
ARC
  5
31
100
AcDbEntity
  8
LAYER_1
  6
CONTINUOUS
 62
     7
100
AcDbCircle
 10
-382.197871
 20
172.93047
 30
0.0
 40
4.25
210
0.0
220
0.0
230
1.0
100
AcDbArc
 50
180.0
 51
360.0
  0
ARC
  5
32
100
AcDbEntity
  8
LAYER_1
  6
CONTINUOUS
 62
     7
100
AcDbCircle
 10
-382.197871
 20
172.93047
 30
0.0
 40
4.25
210
0.0
220
0.0
230
1.0
100
AcDbArc
 50
0.0
 51
180.0
  0
ARC
  5
33
100
AcDbEntity
  8
LAYER_1
  6
CONTINUOUS
 62
     7
100
AcDbCircle
 10
-370.377804
 20
-42.989482
 30
0.0
 40
4.25
210
0.0
220
0.0
230
1.0
100
AcDbArc
 50
180.0
 51
360.0
  0
ARC
  5
34
100
AcDbEntity
  8
LAYER_1
  6
CONTINUOUS
 62
     7
100
AcDbCircle
 10
-370.377804
 20
-42.989482
 30
0.0
 40
4.25
210
0.0
220
0.0
230
1.0
100
AcDbArc
 50
0.0
 51
180.0
  0
ARC
  5
35
100
AcDbEntity
  8
LAYER_1
  6
CONTINUOUS
 62
     7
100
AcDbCircle
 10
-354.107784
 20
199.67046
 30
0.0
 40
4.25
210
0.0
220
0.0
230
1.0
100
AcDbArc
 50
180.0
 51
360.0
  0
ARC
  5
36
100
AcDbEntity
  8
LAYER_1
  6
CONTINUOUS
 62
     7
100
AcDbCircle
 10
-354.107784
 20
199.67046
 30
0.0
 40
4.25
210
0.0
220
0.0
230
1.0
100
AcDbArc
 50
0.0
 51
180.0
  0
LINE
  5
37
100
AcDbEntity
  8
LAYER_1
  6
CONTINUOUS
 62
     7
100
AcDbLine
 10
-348.528315
 20
74.834584
 30
0.0
 11
-354.741328
 21
4.838643
 31
0.0
  0
LINE
  5
38
100
AcDbEntity
  8
LAYER_1
  6
CONTINUOUS
 62
     7
100
AcDbLine
 10
-354.741328
 20
4.838643
 30
0.0
 11
-383.241328
 21
-21.096416
 31
0.0
  0
ARC
  5
39
100
AcDbEntity
  8
LAYER_1
  6
CONTINUOUS
 62
     7
100
AcDbCircle
 10
-354.471416
 20
0.138874
 30
0.0
 40
35.758152
210
0.0
220
0.0
230
1.0
100
AcDbArc
 50
177.491974
 51
216.431335
  0
LINE
  5
3A
100
AcDbEntity
  8
LAYER_1
  6
CONTINUOUS
 62
     7
100
AcDbLine
 10
-390.195308
 20
1.703633
 30
0.0
 11
-383.925411
 21
74.777577
 31
0.0
  0
LINE
  5
3B
100
AcDbEntity
  8
LAYER_1
  6
CONTINUOUS
 62
     7
100
AcDbLine
 10
-383.925411
 20
74.777577
 30
0.0
 11
-348.528315
 21
74.834584
 31
0.0
  0
LINE
  5
3C
100
AcDbEntity
  8
LAYER_1
  6
CONTINUOUS
 62
     7
100
AcDbLine
 10
-342.54333
 20
151.21465
 30
0.0
 11
-348.072383
 21
82.415638
 31
0.0
  0
LINE
  5
3D
100
AcDbEntity
  8
LAYER_1
  6
CONTINUOUS
 62
     7
100
AcDbLine
 10
-348.072383
 20
82.415638
 30
0.0
 11
-382.956294
 21
82.586659
 31
0.0
  0
LINE
  5
3E
100
AcDbEntity
  8
LAYER_1
  6
CONTINUOUS
 62
     7
100
AcDbLine
 10
-382.956294
 20
82.586659
 30
0.0
 11
-376.914302
 21
161.702687
 31
0.0
  0
ARC
  5
3F
100
AcDbEntity
  8
LAYER_1
  6
CONTINUOUS
 62
     7
100
AcDbCircle
 10
-346.588489
 20
158.747914
 30
0.0
 40
30.469421
210
0.0
220
0.0
230
1.0
100
AcDbArc
 50
135.924347
 51
174.434998
  0
LINE
  5
40
100
AcDbEntity
  8
LAYER_1
  6
CONTINUOUS
 62
     7
100
AcDbLine
 10
-368.47839
 20
179.942677
 30
0.0
 11
-342.54333
 21
151.21465
 31
0.0
  0
ARC
  5
41
100
AcDbEntity
  8
LAYER_1
  6
CONTINUOUS
 62
     7
100
AcDbCircle
 10
-336.837764
 20
54.950428
 30
0.0
 40
4.25
210
0.0
220
0.0
230
1.0
100
AcDbArc
 50
180.0
 51
360.0
  0
ARC
  5
42
100
AcDbEntity
  8
LAYER_1
  6
CONTINUOUS
 62
     7
100
AcDbCircle
 10
-336.837764
 20
54.950428
 30
0.0
 40
4.25
210
0.0
220
0.0
230
1.0
100
AcDbArc
 50
0.0
 51
180.0
  0
ARC
  5
43
100
AcDbEntity
  8
LAYER_1
  6
CONTINUOUS
 62
     7
100
AcDbCircle
 10
-306.43774
 20
52.300526
 30
0.0
 40
4.25
210
0.0
220
0.0
230
1.0
100
AcDbArc
 50
180.0
 51
360.0
  0
ARC
  5
44
100
AcDbEntity
  8
LAYER_1
  6
CONTINUOUS
 62
     7
100
AcDbCircle
 10
-306.43774
 20
52.300526
 30
0.0
 40
4.25
210
0.0
220
0.0
230
1.0
100
AcDbArc
 50
0.0
 51
180.0
  0
LINE
  5
45
100
AcDbEntity
  8
LAYER_1
  6
CONTINUOUS
 62
     7
100
AcDbLine
 10
-294.492305
 20
95.582692
 30
0.0
 11
-297.741328
 21
60.926625
 31
0.0
  0
LINE
  5
46
100
AcDbEntity
  8
LAYER_1
  6
CONTINUOUS
 62
     7
100
AcDbLine
 10
-297.741328
 20
60.926625
 30
0.0
 11
-344.025387
 21
60.926625
 31
0.0
  0
LINE
  5
47
100
AcDbEntity
  8
LAYER_1
  6
CONTINUOUS
 62
     7
100
AcDbLine
 10
-344.025387
 20
60.926625
 30
0.0
 11
-341.403316
 21
95.525685
 31
0.0
  0
LINE
  5
48
100
AcDbEntity
  8
LAYER_1
  6
CONTINUOUS
 62
     7
100
AcDbLine
 10
-341.403316
 20
95.525685
 30
0.0
 11
-294.492305
 21
95.582692
 31
0.0
  0
ARC
  5
49
100
AcDbEntity
  8
LAYER_1
  6
CONTINUOUS
 62
     7
100
AcDbCircle
 10
-284.947871
 20
-42.989605
 30
0.0
 40
4.25
210
0.0
220
0.0
230
1.0
100
AcDbArc
 50
180.0
 51
360.0
  0
ARC
  5
4A
100
AcDbEntity
  8
LAYER_1
  6
CONTINUOUS
 62
     7
100
AcDbCircle
 10
-284.947871
 20
-42.989605
 30
0.0
 40
4.25
210
0.0
220
0.0
230
1.0
100
AcDbArc
 50
0.0
 51
180.0
  0
ARC
  5
4B
100
AcDbEntity
  8
LAYER_1
  6
CONTINUOUS
 62
     7
100
AcDbCircle
 10
-299.027987
 20
4.552052
 30
0.0
 40
40.300407
210
0.0
220
0.0
230
1.0
100
AcDbArc
 50
273.127411
 51
304.314362
  0
LINE
  5
4C
100
AcDbEntity
  8
LAYER_1
  6
CONTINUOUS
 62
     7
100
AcDbLine
 10
-296.829341
 20
-35.688335
 30
0.0
 11
-357.420284
 21
-35.688335
 31
0.0
  0
ARC
  5
4D
100
AcDbEntity
  8
LAYER_1
  6
CONTINUOUS
 62
     7
100
AcDbCircle
 10
-354.951056
 20
-1.408611
 30
0.0
 40
34.368542
210
0.0
220
0.0
230
1.0
100
AcDbArc
 50
227.761276
 51
265.880005
  0
LINE
  5
4E
100
AcDbEntity
  8
LAYER_1
  6
CONTINUOUS
 62
     7
100
AcDbLine
 10
-378.054317
 20
-26.853374
 30
0.0
 11
-348.984371
 21
-0.69041
 31
0.0
  0
LINE
  5
4F
100
AcDbEntity
  8
LAYER_1
  6
CONTINUOUS
 62
     7
100
AcDbLine
 10
-348.984371
 20
-0.69041
 30
0.0
 11
-302.187374
 21
-0.747417
 31
0.0
  0
LINE
  5
50
100
AcDbEntity
  8
LAYER_1
  6
CONTINUOUS
 62
     7
100
AcDbLine
 10
-302.187374
 20
-0.747417
 30
0.0
 11
-276.309322
 21
-28.734355
 31
0.0
  0
ARC
  5
51
100
AcDbEntity
  8
LAYER_1
  6
CONTINUOUS
 62
     7
100
AcDbCircle
 10
-268.687862
 20
199.67046
 30
0.0
 40
4.25
210
0.0
220
0.0
230
1.0
100
AcDbArc
 50
180.0
 51
360.0
  0
ARC
  5
52
100
AcDbEntity
  8
LAYER_1
  6
CONTINUOUS
 62
     7
100
AcDbCircle
 10
-268.687862
 20
199.67046
 30
0.0
 40
4.25
210
0.0
220
0.0
230
1.0
100
AcDbArc
 50
0.0
 51
180.0
  0
LINE
  5
53
100
AcDbEntity
  8
LAYER_1
  6
CONTINUOUS
 62
     7
100
AcDbLine
 10
-260.748408
 20
184.331715
 30
0.0
 11
-290.616329
 21
157.028614
 31
0.0
  0
LINE
  5
54
100
AcDbEntity
  8
LAYER_1
  6
CONTINUOUS
 62
     7
100
AcDbLine
 10
-290.616329
 20
157.028614
 30
0.0
 11
-336.216305
 21
157.028614
 31
0.0
  0
LINE
  5
55
100
AcDbEntity
  8
LAYER_1
  6
CONTINUOUS
 62
     7
100
AcDbLine
 10
-336.216305
 20
157.028614
 30
0.0
 11
-362.492672
 21
185.244191
 31
0.0
  0
ARC
  5
56
100
AcDbEntity
  8
LAYER_1
  6
CONTINUOUS
 62
     7
100
AcDbCircle
 10
-343.017803
 20
162.009877
 30
0.0
 40
30.316727
210
0.0
220
0.0
230
1.0
100
AcDbArc
 50
91.796799
 51
129.969559
  0
LINE
  5
57
100
AcDbEntity
  8
LAYER_1
  6
CONTINUOUS
 62
     7
100
AcDbLine
 10
-343.968379
 20
192.311696
 30
0.0
 11
-283.491328
 21
192.368702
 31
0.0
  0
ARC
  5
58
100
AcDbEntity
  8
LAYER_1
  6
CONTINUOUS
 62
     7
100
AcDbCircle
 10
-283.911029
 20
154.983815
 30
0.0
 40
37.387245
210
0.0
220
0.0
230
1.0
100
AcDbArc
 50
51.717991
 51
89.356796
  0
LINE
  5
59
100
AcDbEntity
  8
LAYER_1
  6
CONTINUOUS
 62
     7
100
AcDbLine
 10
-255.960323
 20
74.606556
 30
0.0
 11
-262.572383
 21
-5.706401
 31
0.0
  0
ARC
  5
5A
100
AcDbEntity
  8
LAYER_1
  6
CONTINUOUS
 62
     7
100
AcDbCircle
 10
-300.138652
 20
0.994893
 30
0.0
 40
38.159298
210
0.0
220
0.0
230
1.0
100
AcDbArc
 50
320.971283
 51
349.885651
  0
LINE
  5
5B
100
AcDbEntity
  8
LAYER_1
  6
CONTINUOUS
 62
     7
100
AcDbLine
 10
-270.495357
 20
-23.034404
 30
0.0
 11
-296.658321
 21
5.06667
 31
0.0
  0
LINE
  5
5C
100
AcDbEntity
  8
LAYER_1
  6
CONTINUOUS
 62
     7
100
AcDbLine
 10
-296.658321
 20
5.06667
 30
0.0
 11
-290.673335
 21
74.72057
 31
0.0
  0
LINE
  5
5D
100
AcDbEntity
  8
LAYER_1
  6
CONTINUOUS
 62
     7
100
AcDbLine
 10
-290.673335
 20
74.72057
 30
0.0
 11
-255.960323
 21
74.606556
 31
0.0
  0
ARC
  5
5E
100
AcDbEntity
  8
LAYER_1
  6
CONTINUOUS
 62
     7
100
AcDbCircle
 10
-256.857906
 20
-16.249614
 30
0.0
 40
4.25
210
0.0
220
0.0
230
1.0
100
AcDbArc
 50
180.0
 51
360.0
  0
ARC
  5
5F
100
AcDbEntity
  8
LAYER_1
  6
CONTINUOUS
 62
     7
100
AcDbCircle
 10
-256.857906
 20
-16.249614
 30
0.0
 40
4.25
210
0.0
220
0.0
230
1.0
100
AcDbArc
 50
0.0
 51
180.0
  0
LINE
  5
60
100
AcDbEntity
  8
LAYER_1
  6
CONTINUOUS
 62
     7
100
AcDbLine
 10
-248.835322
 20
157.769703
 30
0.0
 11
-255.048336
 21
82.586659
 31
0.0
  0
LINE
  5
61
100
AcDbEntity
  8
LAYER_1
  6
CONTINUOUS
 62
     7
100
AcDbLine
 10
-255.048336
 20
82.586659
 30
0.0
 11
-290.046383
 21
82.529652
 31
0.0
  0
LINE
  5
62
100
AcDbEntity
  8
LAYER_1
  6
CONTINUOUS
 62
     7
100
AcDbLine
 10
-290.046383
 20
82.529652
 30
0.0
 11
-284.460323
 21
151.613697
 31
0.0
  0
LINE
  5
63
100
AcDbEntity
  8
LAYER_1
  6
CONTINUOUS
 62
     7
100
AcDbLine
 10
-284.460323
 20
151.613697
 30
0.0
 11
-255.390377
 21
178.061696
 31
0.0
  0
ARC
  5
64
100
AcDbEntity
  8
LAYER_1
  6
CONTINUOUS
 62
     7
100
AcDbCircle
 10
-290.429729
 20
155.537953
 30
0.0
 40
41.654232
210
0.0
220
0.0
230
1.0
100
AcDbArc
 50
3.071266
 51
32.733425
  0
ARC
  5
65
100
AcDbEntity
  8
LAYER_1
  6
CONTINUOUS
 62
     7
100
AcDbCircle
 10
-249.917842
 20
63.080433
 30
0.0
 40
4.25
210
0.0
220
0.0
230
1.0
100
AcDbArc
 50
180.0
 51
360.0
  0
ARC
  5
66
100
AcDbEntity
  8
LAYER_1
  6
CONTINUOUS
 62
     7
100
AcDbCircle
 10
-249.917842
 20
63.080433
 30
0.0
 40
4.25
210
0.0
220
0.0
230
1.0
100
AcDbArc
 50
0.0
 51
180.0
  0
ARC
  5
67
100
AcDbEntity
  8
LAYER_1
  6
CONTINUOUS
 62
     7
100
AcDbCircle
 10
-246.757809
 20
93.600392
 30
0.0
 40
4.25
210
0.0
220
0.0
230
1.0
100
AcDbArc
 50
180.0
 51
360.0
  0
ARC
  5
68
100
AcDbEntity
  8
LAYER_1
  6
CONTINUOUS
 62
     7
100
AcDbCircle
 10
-246.757809
 20
93.600392
 30
0.0
 40
4.25
210
0.0
220
0.0
230
1.0
100
AcDbArc
 50
0.0
 51
180.0
  0
ARC
  5
69
100
AcDbEntity
  8
LAYER_1
  6
CONTINUOUS
 62
     7
100
AcDbCircle
 10
-240.757809
 20
167.840382
 30
0.0
 40
4.25
210
0.0
220
0.0
230
1.0
100
AcDbArc
 50
180.0
 51
360.0
  0
ARC
  5
6A
100
AcDbEntity
  8
LAYER_1
  6
CONTINUOUS
 62
     7
100
AcDbCircle
 10
-240.757809
 20
167.840382
 30
0.0
 40
4.25
210
0.0
220
0.0
230
1.0
100
AcDbArc
 50
0.0
 51
180.0
  0
ARC
  5
6B
100
AcDbEntity
  8
LAYER_1
  6
CONTINUOUS
 62
     7
100
AcDbCircle
 10
-193.307735
 20
-11.159526
 30
0.0
 40
4.25
210
0.0
220
0.0
230
1.0
100
AcDbArc
 50
180.0
 51
360.0
  0
ARC
  5
6C
100
AcDbEntity
  8
LAYER_1
  6
CONTINUOUS
 62
     7
100
AcDbCircle
 10
-193.307735
 20
-11.159526
 30
0.0
 40
4.25
210
0.0
220
0.0
230
1.0
100
AcDbArc
 50
0.0
 51
180.0
  0
ARC
  5
6D
100
AcDbEntity
  8
LAYER_1
  6
CONTINUOUS
 62
     7
100
AcDbCircle
 10
-187.307735
 20
63.080433
 30
0.0
 40
4.25
210
0.0
220
0.0
230
1.0
100
AcDbArc
 50
180.0
 51
360.0
  0
ARC
  5
6E
100
AcDbEntity
  8
LAYER_1
  6
CONTINUOUS
 62
     7
100
AcDbCircle
 10
-187.307735
 20
63.080433
 30
0.0
 40
4.25
210
0.0
220
0.0
230
1.0
100
AcDbArc
 50
0.0
 51
180.0
  0
ARC
  5
6F
100
AcDbEntity
  8
LAYER_1
  6
CONTINUOUS
 62
     7
100
AcDbCircle
 10
-184.13769
 20
93.600514
 30
0.0
 40
4.25
210
0.0
220
0.0
230
1.0
100
AcDbArc
 50
180.0
 51
360.0
  0
ARC
  5
70
100
AcDbEntity
  8
LAYER_1
  6
CONTINUOUS
 62
     7
100
AcDbCircle
 10
-184.13769
 20
93.600514
 30
0.0
 40
4.25
210
0.0
220
0.0
230
1.0
100
AcDbArc
 50
0.0
 51
180.0
  0
ARC
  5
71
100
AcDbEntity
  8
LAYER_1
  6
CONTINUOUS
 62
     7
100
AcDbCircle
 10
-177.19775
 20
172.93047
 30
0.0
 40
4.25
210
0.0
220
0.0
230
1.0
100
AcDbArc
 50
180.0
 51
360.0
  0
ARC
  5
72
100
AcDbEntity
  8
LAYER_1
  6
CONTINUOUS
 62
     7
100
AcDbCircle
 10
-177.19775
 20
172.93047
 30
0.0
 40
4.25
210
0.0
220
0.0
230
1.0
100
AcDbArc
 50
0.0
 51
180.0
  0
ARC
  5
73
100
AcDbEntity
  8
LAYER_1
  6
CONTINUOUS
 62
     7
100
AcDbCircle
 10
-165.377681
 20
-42.98936
 30
0.0
 40
4.25
210
0.0
220
0.0
230
1.0
100
AcDbArc
 50
180.0
 51
360.0
  0
ARC
  5
74
100
AcDbEntity
  8
LAYER_1
  6
CONTINUOUS
 62
     7
100
AcDbCircle
 10
-165.377681
 20
-42.98936
 30
0.0
 40
4.25
210
0.0
220
0.0
230
1.0
100
AcDbArc
 50
0.0
 51
180.0
  0
ARC
  5
75
100
AcDbEntity
  8
LAYER_1
  6
CONTINUOUS
 62
     7
100
AcDbCircle
 10
-149.107662
 20
199.67046
 30
0.0
 40
4.25
210
0.0
220
0.0
230
1.0
100
AcDbArc
 50
180.0
 51
360.0
  0
ARC
  5
76
100
AcDbEntity
  8
LAYER_1
  6
CONTINUOUS
 62
     7
100
AcDbCircle
 10
-149.107662
 20
199.67046
 30
0.0
 40
4.25
210
0.0
220
0.0
230
1.0
100
AcDbArc
 50
0.0
 51
180.0
  0
LINE
  5
77
100
AcDbEntity
  8
LAYER_1
  6
CONTINUOUS
 62
     7
100
AcDbLine
 10
-143.528194
 20
74.834706
 30
0.0
 11
-149.741206
 21
4.838765
 31
0.0
  0
LINE
  5
78
100
AcDbEntity
  8
LAYER_1
  6
CONTINUOUS
 62
     7
100
AcDbLine
 10
-149.741206
 20
4.838765
 30
0.0
 11
-178.241206
 21
-21.096294
 31
0.0
  0
ARC
  5
79
100
AcDbEntity
  8
LAYER_1
  6
CONTINUOUS
 62
     7
100
AcDbCircle
 10
-149.471294
 20
0.138997
 30
0.0
 40
35.758152
210
0.0
220
0.0
230
1.0
100
AcDbArc
 50
177.491974
 51
216.431335
  0
LINE
  5
7A
100
AcDbEntity
  8
LAYER_1
  6
CONTINUOUS
 62
     7
100
AcDbLine
 10
-185.195187
 20
1.703755
 30
0.0
 11
-178.925289
 21
74.777699
 31
0.0
  0
LINE
  5
7B
100
AcDbEntity
  8
LAYER_1
  6
CONTINUOUS
 62
     7
100
AcDbLine
 10
-178.925289
 20
74.777699
 30
0.0
 11
-143.528194
 21
74.834706
 31
0.0
  0
LINE
  5
7C
100
AcDbEntity
  8
LAYER_1
  6
CONTINUOUS
 62
     7
100
AcDbLine
 10
-137.543208
 20
151.214772
 30
0.0
 11
-143.072261
 21
82.41576
 31
0.0
  0
LINE
  5
7D
100
AcDbEntity
  8
LAYER_1
  6
CONTINUOUS
 62
     7
100
AcDbLine
 10
-143.072261
 20
82.41576
 30
0.0
 11
-177.956294
 21
82.586781
 31
0.0
  0
LINE
  5
7E
100
AcDbEntity
  8
LAYER_1
  6
CONTINUOUS
 62
     7
100
AcDbLine
 10
-177.956294
 20
82.586781
 30
0.0
 11
-171.91418
 21
161.702809
 31
0.0
  0
ARC
  5
7F
100
AcDbEntity
  8
LAYER_1
  6
CONTINUOUS
 62
     7
100
AcDbCircle
 10
-141.588375
 20
158.748036
 30
0.0
 40
30.469414
210
0.0
220
0.0
230
1.0
100
AcDbArc
 50
135.924347
 51
174.434998
  0
LINE
  5
80
100
AcDbEntity
  8
LAYER_1
  6
CONTINUOUS
 62
     7
100
AcDbLine
 10
-163.478267
 20
179.942799
 30
0.0
 11
-137.543208
 21
151.214772
 31
0.0
  0
ARC
  5
81
100
AcDbEntity
  8
LAYER_1
  6
CONTINUOUS
 62
     7
100
AcDbCircle
 10
-131.837643
 20
54.950551
 30
0.0
 40
4.25
210
0.0
220
0.0
230
1.0
100
AcDbArc
 50
180.0
 51
360.0
  0
ARC
  5
82
100
AcDbEntity
  8
LAYER_1
  6
CONTINUOUS
 62
     7
100
AcDbCircle
 10
-131.837643
 20
54.950551
 30
0.0
 40
4.25
210
0.0
220
0.0
230
1.0
100
AcDbArc
 50
0.0
 51
180.0
  0
ARC
  5
83
100
AcDbEntity
  8
LAYER_1
  6
CONTINUOUS
 62
     7
100
AcDbCircle
 10
-101.437496
 20
52.300648
 30
0.0
 40
4.25
210
0.0
220
0.0
230
1.0
100
AcDbArc
 50
180.0
 51
360.0
  0
ARC
  5
84
100
AcDbEntity
  8
LAYER_1
  6
CONTINUOUS
 62
     7
100
AcDbCircle
 10
-101.437496
 20
52.300648
 30
0.0
 40
4.25
210
0.0
220
0.0
230
1.0
100
AcDbArc
 50
0.0
 51
180.0
  0
LINE
  5
85
100
AcDbEntity
  8
LAYER_1
  6
CONTINUOUS
 62
     7
100
AcDbLine
 10
-89.492062
 20
95.582814
 30
0.0
 11
-92.741085
 21
60.926747
 31
0.0
  0
LINE
  5
86
100
AcDbEntity
  8
LAYER_1
  6
CONTINUOUS
 62
     7
100
AcDbLine
 10
-92.741085
 20
60.926747
 30
0.0
 11
-139.025264
 21
60.926747
 31
0.0
  0
LINE
  5
87
100
AcDbEntity
  8
LAYER_1
  6
CONTINUOUS
 62
     7
100
AcDbLine
 10
-139.025264
 20
60.926747
 30
0.0
 11
-136.403193
 21
95.525807
 31
0.0
  0
LINE
  5
88
100
AcDbEntity
  8
LAYER_1
  6
CONTINUOUS
 62
     7
100
AcDbLine
 10
-136.403193
 20
95.525807
 30
0.0
 11
-89.492062
 21
95.582814
 31
0.0
  0
ARC
  5
89
100
AcDbEntity
  8
LAYER_1
  6
CONTINUOUS
 62
     7
100
AcDbCircle
 10
-79.947627
 20
-42.989482
 30
0.0
 40
4.25
210
0.0
220
0.0
230
1.0
100
AcDbArc
 50
180.0
 51
360.0
  0
ARC
  5
8A
100
AcDbEntity
  8
LAYER_1
  6
CONTINUOUS
 62
     7
100
AcDbCircle
 10
-79.947627
 20
-42.989482
 30
0.0
 40
4.25
210
0.0
220
0.0
230
1.0
100
AcDbArc
 50
0.0
 51
180.0
  0
ARC
  5
8B
100
AcDbEntity
  8
LAYER_1
  6
CONTINUOUS
 62
     7
100
AcDbCircle
 10
-94.027737
 20
4.552174
 30
0.0
 40
40.3004
210
0.0
220
0.0
230
1.0
100
AcDbArc
 50
273.127411
 51
304.314362
  0
LINE
  5
8C
100
AcDbEntity
  8
LAYER_1
  6
CONTINUOUS
 62
     7
100
AcDbLine
 10
-91.829098
 20
-35.688213
 30
0.0
 11
-152.420161
 21
-35.688213
 31
0.0
  0
ARC
  5
8D
100
AcDbEntity
  8
LAYER_1
  6
CONTINUOUS
 62
     7
100
AcDbCircle
 10
-149.950939
 20
-1.408489
 30
0.0
 40
34.368542
210
0.0
220
0.0
230
1.0
100
AcDbArc
 50
227.761307
 51
265.880035
  0
LINE
  5
8E
100
AcDbEntity
  8
LAYER_1
  6
CONTINUOUS
 62
     7
100
AcDbLine
 10
-173.054194
 20
-26.853252
 30
0.0
 11
-143.984248
 21
-0.690288
 31
0.0
  0
LINE
  5
8F
100
AcDbEntity
  8
LAYER_1
  6
CONTINUOUS
 62
     7
100
AcDbLine
 10
-143.984248
 20
-0.690288
 30
0.0
 11
-97.187129
 21
-0.747295
 31
0.0
  0
LINE
  5
90
100
AcDbEntity
  8
LAYER_1
  6
CONTINUOUS
 62
     7
100
AcDbLine
 10
-97.187129
 20
-0.747295
 30
0.0
 11
-71.309077
 21
-28.734233
 31
0.0
  0
ARC
  5
91
100
AcDbEntity
  8
LAYER_1
  6
CONTINUOUS
 62
     7
100
AcDbCircle
 10
-63.687618
 20
199.67046
 30
0.0
 40
4.25
210
0.0
220
0.0
230
1.0
100
AcDbArc
 50
180.0
 51
360.0
  0
ARC
  5
92
100
AcDbEntity
  8
LAYER_1
  6
CONTINUOUS
 62
     7
100
AcDbCircle
 10
-63.687618
 20
199.67046
 30
0.0
 40
4.25
210
0.0
220
0.0
230
1.0
100
AcDbArc
 50
0.0
 51
180.0
  0
LINE
  5
93
100
AcDbEntity
  8
LAYER_1
  6
CONTINUOUS
 62
     7
100
AcDbLine
 10
-55.748165
 20
184.331837
 30
0.0
 11
-85.616084
 21
157.028737
 31
0.0
  0
LINE
  5
94
100
AcDbEntity
  8
LAYER_1
  6
CONTINUOUS
 62
     7
100
AcDbLine
 10
-85.616084
 20
157.028737
 30
0.0
 11
-131.216182
 21
157.028737
 31
0.0
  0
LINE
  5
95
100
AcDbEntity
  8
LAYER_1
  6
CONTINUOUS
 62
     7
100
AcDbLine
 10
-131.216182
 20
157.028737
 30
0.0
 11
-157.49255
 21
185.244313
 31
0.0
  0
ARC
  5
96
100
AcDbEntity
  8
LAYER_1
  6
CONTINUOUS
 62
     7
100
AcDbCircle
 10
-138.017696
 20
162.009999
 30
0.0
 40
30.316715
210
0.0
220
0.0
230
1.0
100
AcDbArc
 50
91.796776
 51
129.969528
  0
LINE
  5
97
100
AcDbEntity
  8
LAYER_1
  6
CONTINUOUS
 62
     7
100
AcDbLine
 10
-138.968257
 20
192.311818
 30
0.0
 11
-78.491085
 21
192.368824
 31
0.0
  0
ARC
  5
98
100
AcDbEntity
  8
LAYER_1
  6
CONTINUOUS
 62
     7
100
AcDbCircle
 10
-78.910792
 20
154.983937
 30
0.0
 40
37.387245
210
0.0
220
0.0
230
1.0
100
AcDbArc
 50
51.717976
 51
89.356781
  0
LINE
  5
99
100
AcDbEntity
  8
LAYER_1
  6
CONTINUOUS
 62
     7
100
AcDbLine
 10
-50.960078
 20
74.606678
 30
0.0
 11
-57.572139
 21
-5.706279
 31
0.0
  0
ARC
  5
9A
100
AcDbEntity
  8
LAYER_1
  6
CONTINUOUS
 62
     7
100
AcDbCircle
 10
-95.138453
 20
0.995259
 30
0.0
 40
38.159386
210
0.0
220
0.0
230
1.0
100
AcDbArc
 50
320.970917
 51
349.885284
  0
LINE
  5
9B
100
AcDbEntity
  8
LAYER_1
  6
CONTINUOUS
 62
     7
100
AcDbLine
 10
-65.495235
 20
-23.034282
 30
0.0
 11
-91.658076
 21
5.066792
 31
0.0
  0
LINE
  5
9C
100
AcDbEntity
  8
LAYER_1
  6
CONTINUOUS
 62
     7
100
AcDbLine
 10
-91.658076
 20
5.066792
 30
0.0
 11
-85.673092
 21
74.720692
 31
0.0
  0
LINE
  5
9D
100
AcDbEntity
  8
LAYER_1
  6
CONTINUOUS
 62
     7
100
AcDbLine
 10
-85.673092
 20
74.720692
 30
0.0
 11
-50.960078
 21
74.606678
 31
0.0
  0
ARC
  5
9E
100
AcDbEntity
  8
LAYER_1
  6
CONTINUOUS
 62
     7
100
AcDbCircle
 10
-51.857784
 20
-16.249492
 30
0.0
 40
4.25
210
0.0
220
0.0
230
1.0
100
AcDbArc
 50
180.0
 51
360.0
  0
ARC
  5
9F
100
AcDbEntity
  8
LAYER_1
  6
CONTINUOUS
 62
     7
100
AcDbCircle
 10
-51.857784
 20
-16.249492
 30
0.0
 40
4.25
210
0.0
220
0.0
230
1.0
100
AcDbArc
 50
0.0
 51
180.0
  0
LINE
  5
A0
100
AcDbEntity
  8
LAYER_1
  6
CONTINUOUS
 62
     7
100
AcDbLine
 10
-43.835079
 20
157.769825
 30
0.0
 11
-50.048213
 21
82.586781
 31
0.0
  0
LINE
  5
A1
100
AcDbEntity
  8
LAYER_1
  6
CONTINUOUS
 62
     7
100
AcDbLine
 10
-50.048213
 20
82.586781
 30
0.0
 11
-85.046138
 21
82.529774
 31
0.0
  0
LINE
  5
A2
100
AcDbEntity
  8
LAYER_1
  6
CONTINUOUS
 62
     7
100
AcDbLine
 10
-85.046138
 20
82.529774
 30
0.0
 11
-79.460078
 21
151.61382
 31
0.0
  0
LINE
  5
A3
100
AcDbEntity
  8
LAYER_1
  6
CONTINUOUS
 62
     7
100
AcDbLine
 10
-79.460078
 20
151.61382
 30
0.0
 11
-50.390255
 21
178.061818
 31
0.0
  0
ARC
  5
A4
100
AcDbEntity
  8
LAYER_1
  6
CONTINUOUS
 62
     7
100
AcDbCircle
 10
-85.429562
 20
155.537831
 30
0.0
 40
41.654327
210
0.0
220
0.0
230
1.0
100
AcDbArc
 50
3.071584
 51
32.733742
  0
ARC
  5
A5
100
AcDbEntity
  8
LAYER_1
  6
CONTINUOUS
 62
     7
100
AcDbCircle
 10
-44.917598
 20
63.080433
 30
0.0
 40
4.25
210
0.0
220
0.0
230
1.0
100
AcDbArc
 50
180.0
 51
360.0
  0
ARC
  5
A6
100
AcDbEntity
  8
LAYER_1
  6
CONTINUOUS
 62
     7
100
AcDbCircle
 10
-44.917598
 20
63.080433
 30
0.0
 40
4.25
210
0.0
220
0.0
230
1.0
100
AcDbArc
 50
0.0
 51
180.0
  0
ARC
  5
A7
100
AcDbEntity
  8
LAYER_1
  6
CONTINUOUS
 62
     7
100
AcDbCircle
 10
-41.757686
 20
93.600514
 30
0.0
 40
4.25
210
0.0
220
0.0
230
1.0
100
AcDbArc
 50
180.0
 51
360.0
  0
ARC
  5
A8
100
AcDbEntity
  8
LAYER_1
  6
CONTINUOUS
 62
     7
100
AcDbCircle
 10
-41.757686
 20
93.600514
 30
0.0
 40
4.25
210
0.0
220
0.0
230
1.0
100
AcDbArc
 50
0.0
 51
180.0
  0
ARC
  5
A9
100
AcDbEntity
  8
LAYER_1
  6
CONTINUOUS
 62
     7
100
AcDbCircle
 10
-35.757686
 20
167.840504
 30
0.0
 40
4.25
210
0.0
220
0.0
230
1.0
100
AcDbArc
 50
180.0
 51
360.0
  0
ARC
  5
AA
100
AcDbEntity
  8
LAYER_1
  6
CONTINUOUS
 62
     7
100
AcDbCircle
 10
-35.757686
 20
167.840504
 30
0.0
 40
4.25
210
0.0
220
0.0
230
1.0
100
AcDbArc
 50
0.0
 51
180.0
  0
LINE
  5
AB
100
AcDbEntity
  8
LAYER_1
  6
CONTINUOUS
 62
     7
100
AcDbLine
 10
35.891484
 20
91.898854
 30
0.0
 11
33.519413
 21
63.945179
 31
0.0
  0
ARC
  5
AC
100
AcDbEntity
  8
LAYER_1
  6
CONTINUOUS
 62
     7
100
AcDbCircle
 10
30.644689
 20
63.945912
 30
0.0
 40
2.874725
210
0.0
220
0.0
230
1.0
100
AcDbArc
 50
267.989899
 51
359.985413
  0
LINE
  5
AD
100
AcDbEntity
  8
LAYER_1
  6
CONTINUOUS
 62
     7
100
AcDbLine
 10
30.543828
 20
61.072987
 30
0.0
 11
2.288456
 21
61.072987
 31
0.0
  0
ARC
  5
AE
100
AcDbEntity
  8
LAYER_1
  6
CONTINUOUS
 62
     7
100
AcDbCircle
 10
2.079045
 20
63.934132
 30
0.0
 40
2.868798
210
0.0
220
0.0
230
1.0
100
AcDbArc
 50
175.814102
 51
274.186127
  0
LINE
  5
AF
100
AcDbEntity
  8
LAYER_1
  6
CONTINUOUS
 62
     7
100
AcDbLine
 10
-0.782101
 20
64.143544
 30
0.0
 11
1.098271
 21
92.494069
 31
0.0
  0
ARC
  5
B0
100
AcDbEntity
  8
LAYER_1
  6
CONTINUOUS
 62
     7
100
AcDbCircle
 10
4.317113
 20
92.361012
 30
0.0
 40
3.221591
210
0.0
220
0.0
230
1.0
100
AcDbArc
 50
85.581314
 51
177.632919
  0
LINE
  5
B1
100
AcDbEntity
  8
LAYER_1
  6
CONTINUOUS
 62
     7
100
AcDbLine
 10
4.565311
 20
95.573048
 30
0.0
 11
32.424198
 21
95.573048
 31
0.0
  0
ARC
  5
B2
100
AcDbEntity
  8
LAYER_1
  6
CONTINUOUS
 62
     7
100
AcDbCircle
 10
32.632298
 20
92.296315
 30
0.0
 40
3.283335
210
0.0
220
0.0
230
1.0
100
AcDbArc
 50
353.046692
 51
93.633865
  0
ARC
  5
B3
100
AcDbEntity
  8
LAYER_1
  6
CONTINUOUS
 62
     7
100
AcDbCircle
 10
71.692266
 20
-11.159404
 30
0.0
 40
4.25
210
0.0
220
0.0
230
1.0
100
AcDbArc
 50
180.0
 51
360.0
  0
ARC
  5
B4
100
AcDbEntity
  8
LAYER_1
  6
CONTINUOUS
 62
     7
100
AcDbCircle
 10
71.692266
 20
-11.159404
 30
0.0
 40
4.25
210
0.0
220
0.0
230
1.0
100
AcDbArc
 50
0.0
 51
180.0
  0
ARC
  5
B5
100
AcDbEntity
  8
LAYER_1
  6
CONTINUOUS
 62
     7
100
AcDbCircle
 10
77.692266
 20
63.080433
 30
0.0
 40
4.25
210
0.0
220
0.0
230
1.0
100
AcDbArc
 50
180.0
 51
360.0
  0
ARC
  5
B6
100
AcDbEntity
  8
LAYER_1
  6
CONTINUOUS
 62
     7
100
AcDbCircle
 10
77.692266
 20
63.080433
 30
0.0
 40
4.25
210
0.0
220
0.0
230
1.0
100
AcDbArc
 50
0.0
 51
180.0
  0
ARC
  5
B7
100
AcDbEntity
  8
LAYER_1
  6
CONTINUOUS
 62
     7
100
AcDbCircle
 10
80.862432
 20
93.600514
 30
0.0
 40
4.25
210
0.0
220
0.0
230
1.0
100
AcDbArc
 50
180.0
 51
360.0
  0
ARC
  5
B8
100
AcDbEntity
  8
LAYER_1
  6
CONTINUOUS
 62
     7
100
AcDbCircle
 10
80.862432
 20
93.600514
 30
0.0
 40
4.25
210
0.0
220
0.0
230
1.0
100
AcDbArc
 50
0.0
 51
180.0
  0
ARC
  5
B9
100
AcDbEntity
  8
LAYER_1
  6
CONTINUOUS
 62
     7
100
AcDbCircle
 10
87.802373
 20
172.93047
 30
0.0
 40
4.25
210
0.0
220
0.0
230
1.0
100
AcDbArc
 50
180.0
 51
360.0
  0
ARC
  5
BA
100
AcDbEntity
  8
LAYER_1
  6
CONTINUOUS
 62
     7
100
AcDbCircle
 10
87.802373
 20
172.93047
 30
0.0
 40
4.25
210
0.0
220
0.0
230
1.0
100
AcDbArc
 50
0.0
 51
180.0
  0
ARC
  5
BB
100
AcDbEntity
  8
LAYER_1
  6
CONTINUOUS
 62
     7
100
AcDbCircle
 10
99.62244
 20
-42.989482
 30
0.0
 40
4.25
210
0.0
220
0.0
230
1.0
100
AcDbArc
 50
180.0
 51
360.0
  0
ARC
  5
BC
100
AcDbEntity
  8
LAYER_1
  6
CONTINUOUS
 62
     7
100
AcDbCircle
 10
99.62244
 20
-42.989482
 30
0.0
 40
4.25
210
0.0
220
0.0
230
1.0
100
AcDbArc
 50
0.0
 51
180.0
  0
ARC
  5
BD
100
AcDbEntity
  8
LAYER_1
  6
CONTINUOUS
 62
     7
100
AcDbCircle
 10
115.892217
 20
199.670582
 30
0.0
 40
4.25
210
0.0
220
0.0
230
1.0
100
AcDbArc
 50
180.0
 51
360.0
  0
ARC
  5
BE
100
AcDbEntity
  8
LAYER_1
  6
CONTINUOUS
 62
     7
100
AcDbCircle
 10
115.892217
 20
199.670582
 30
0.0
 40
4.25
210
0.0
220
0.0
230
1.0
100
AcDbArc
 50
0.0
 51
180.0
  0
LINE
  5
BF
100
AcDbEntity
  8
LAYER_1
  6
CONTINUOUS
 62
     7
100
AcDbLine
 10
121.471562
 20
74.834584
 30
0.0
 11
115.258672
 21
4.838643
 31
0.0
  0
LINE
  5
C0
100
AcDbEntity
  8
LAYER_1
  6
CONTINUOUS
 62
     7
100
AcDbLine
 10
115.258672
 20
4.838643
 30
0.0
 11
86.758672
 21
-21.096416
 31
0.0
  0
ARC
  5
C1
100
AcDbEntity
  8
LAYER_1
  6
CONTINUOUS
 62
     7
100
AcDbCircle
 10
115.528508
 20
0.139027
 30
0.0
 40
35.758183
210
0.0
220
0.0
230
1.0
100
AcDbArc
 50
177.492249
 51
216.431595
  0
LINE
  5
C2
100
AcDbEntity
  8
LAYER_1
  6
CONTINUOUS
 62
     7
100
AcDbLine
 10
79.80457
 20
1.703633
 30
0.0
 11
86.074589
 21
74.777577
 31
0.0
  0
LINE
  5
C3
100
AcDbEntity
  8
LAYER_1
  6
CONTINUOUS
 62
     7
100
AcDbLine
 10
86.074589
 20
74.777577
 30
0.0
 11
121.471562
 21
74.834584
 31
0.0
  0
LINE
  5
C4
100
AcDbEntity
  8
LAYER_1
  6
CONTINUOUS
 62
     7
100
AcDbLine
 10
127.45667
 20
151.21465
 30
0.0
 11
121.927617
 21
82.415638
 31
0.0
  0
LINE
  5
C5
100
AcDbEntity
  8
LAYER_1
  6
CONTINUOUS
 62
     7
100
AcDbLine
 10
121.927617
 20
82.415638
 30
0.0
 11
87.043583
 21
82.586659
 31
0.0
  0
LINE
  5
C6
100
AcDbEntity
  8
LAYER_1
  6
CONTINUOUS
 62
     7
100
AcDbLine
 10
87.043583
 20
82.586659
 30
0.0
 11
93.085575
 21
161.702687
 31
0.0
  0
ARC
  5
C7
100
AcDbEntity
  8
LAYER_1
  6
CONTINUOUS
 62
     7
100
AcDbCircle
 10
123.411443
 20
158.747731
 30
0.0
 40
30.469492
210
0.0
220
0.0
230
1.0
100
AcDbArc
 50
135.923996
 51
174.434662
  0
LINE
  5
C8
100
AcDbEntity
  8
LAYER_1
  6
CONTINUOUS
 62
     7
100
AcDbLine
 10
101.52161
 20
179.942677
 30
0.0
 11
127.45667
 21
151.21465
 31
0.0
  0
ARC
  5
C9
100
AcDbEntity
  8
LAYER_1
  6
CONTINUOUS
 62
     7
100
AcDbCircle
 10
133.162479
 20
54.950428
 30
0.0
 40
4.25
210
0.0
220
0.0
230
1.0
100
AcDbArc
 50
180.0
 51
360.0
  0
ARC
  5
CA
100
AcDbEntity
  8
LAYER_1
  6
CONTINUOUS
 62
     7
100
AcDbCircle
 10
133.162479
 20
54.950428
 30
0.0
 40
4.25
210
0.0
220
0.0
230
1.0
100
AcDbArc
 50
0.0
 51
180.0
  0
ARC
  5
CB
100
AcDbEntity
  8
LAYER_1
  6
CONTINUOUS
 62
     7
100
AcDbCircle
 10
163.562626
 20
52.300526
 30
0.0
 40
4.25
210
0.0
220
0.0
230
1.0
100
AcDbArc
 50
180.0
 51
360.0
  0
ARC
  5
CC
100
AcDbEntity
  8
LAYER_1
  6
CONTINUOUS
 62
     7
100
AcDbCircle
 10
163.562626
 20
52.300526
 30
0.0
 40
4.25
210
0.0
220
0.0
230
1.0
100
AcDbArc
 50
0.0
 51
180.0
  0
LINE
  5
CD
100
AcDbEntity
  8
LAYER_1
  6
CONTINUOUS
 62
     7
100
AcDbLine
 10
175.507938
 20
95.582692
 30
0.0
 11
172.258915
 21
60.926625
 31
0.0
  0
LINE
  5
CE
100
AcDbEntity
  8
LAYER_1
  6
CONTINUOUS
 62
     7
100
AcDbLine
 10
172.258915
 20
60.926625
 30
0.0
 11
125.974736
 21
60.926625
 31
0.0
  0
LINE
  5
CF
100
AcDbEntity
  8
LAYER_1
  6
CONTINUOUS
 62
     7
100
AcDbLine
 10
125.974736
 20
60.926625
 30
0.0
 11
128.596807
 21
95.525685
 31
0.0
  0
LINE
  5
D0
100
AcDbEntity
  8
LAYER_1
  6
CONTINUOUS
 62
     7
100
AcDbLine
 10
128.596807
 20
95.525685
 30
0.0
 11
175.507938
 21
95.582692
 31
0.0
  0
ARC
  5
D1
100
AcDbEntity
  8
LAYER_1
  6
CONTINUOUS
 62
     7
100
AcDbCircle
 10
185.052617
 20
-42.989482
 30
0.0
 40
4.25
210
0.0
220
0.0
230
1.0
100
AcDbArc
 50
180.0
 51
360.0
  0
ARC
  5
D2
100
AcDbEntity
  8
LAYER_1
  6
CONTINUOUS
 62
     7
100
AcDbCircle
 10
185.052617
 20
-42.989482
 30
0.0
 40
4.25
210
0.0
220
0.0
230
1.0
100
AcDbArc
 50
0.0
 51
180.0
  0
ARC
  5
D3
100
AcDbEntity
  8
LAYER_1
  6
CONTINUOUS
 62
     7
100
AcDbCircle
 10
170.972112
 20
4.552052
 30
0.0
 40
40.300419
210
0.0
220
0.0
230
1.0
100
AcDbArc
 50
273.127441
 51
304.314392
  0
LINE
  5
D4
100
AcDbEntity
  8
LAYER_1
  6
CONTINUOUS
 62
     7
100
AcDbLine
 10
173.17078
 20
-35.688335
 30
0.0
 11
112.579716
 21
-35.688335
 31
0.0
  0
ARC
  5
D5
100
AcDbEntity
  8
LAYER_1
  6
CONTINUOUS
 62
     7
100
AcDbCircle
 10
115.048955
 20
-1.408611
 30
0.0
 40
34.368542
210
0.0
220
0.0
230
1.0
100
AcDbArc
 50
227.761276
 51
265.880005
  0
LINE
  5
D6
100
AcDbEntity
  8
LAYER_1
  6
CONTINUOUS
 62
     7
100
AcDbLine
 10
91.945683
 20
-26.853374
 30
0.0
 11
121.015752
 21
-0.69041
 31
0.0
  0
LINE
  5
D7
100
AcDbEntity
  8
LAYER_1
  6
CONTINUOUS
 62
     7
100
AcDbLine
 10
121.015752
 20
-0.69041
 30
0.0
 11
167.812871
 21
-0.747417
 31
0.0
  0
LINE
  5
D8
100
AcDbEntity
  8
LAYER_1
  6
CONTINUOUS
 62
     7
100
AcDbLine
 10
167.812871
 20
-0.747417
 30
0.0
 11
193.690801
 21
-28.734355
 31
0.0
  0
ARC
  5
D9
100
AcDbEntity
  8
LAYER_1
  6
CONTINUOUS
 62
     7
100
AcDbCircle
 10
201.312627
 20
199.670582
 30
0.0
 40
4.25
210
0.0
220
0.0
230
1.0
100
AcDbArc
 50
180.0
 51
360.0
  0
ARC
  5
DA
100
AcDbEntity
  8
LAYER_1
  6
CONTINUOUS
 62
     7
100
AcDbCircle
 10
201.312627
 20
199.670582
 30
0.0
 40
4.25
210
0.0
220
0.0
230
1.0
100
AcDbArc
 50
0.0
 51
180.0
  0
LINE
  5
DB
100
AcDbEntity
  8
LAYER_1
  6
CONTINUOUS
 62
     7
100
AcDbLine
 10
209.251835
 20
184.331715
 30
0.0
 11
179.383916
 21
157.028614
 31
0.0
  0
LINE
  5
DC
100
AcDbEntity
  8
LAYER_1
  6
CONTINUOUS
 62
     7
100
AcDbLine
 10
179.383916
 20
157.028614
 30
0.0
 11
133.783818
 21
157.028614
 31
0.0
  0
LINE
  5
DD
100
AcDbEntity
  8
LAYER_1
  6
CONTINUOUS
 62
     7
100
AcDbLine
 10
133.783818
 20
157.028614
 30
0.0
 11
107.507207
 21
185.244191
 31
0.0
  0
ARC
  5
DE
100
AcDbEntity
  8
LAYER_1
  6
CONTINUOUS
 62
     7
100
AcDbCircle
 10
126.982122
 20
162.009694
 30
0.0
 40
30.316895
210
0.0
220
0.0
230
1.0
100
AcDbArc
 50
91.796638
 51
129.969391
  0
LINE
  5
DF
100
AcDbEntity
  8
LAYER_1
  6
CONTINUOUS
 62
     7
100
AcDbLine
 10
126.031621
 20
192.311696
 30
0.0
 11
186.508915
 21
192.368702
 31
0.0
  0
ARC
  5
E0
100
AcDbEntity
  8
LAYER_1
  6
CONTINUOUS
 62
     7
100
AcDbCircle
 10
186.089238
 20
154.983815
 30
0.0
 40
37.387241
210
0.0
220
0.0
230
1.0
100
AcDbArc
 50
51.718025
 51
89.356834
  0
LINE
  5
E1
100
AcDbEntity
  8
LAYER_1
  6
CONTINUOUS
 62
     7
100
AcDbLine
 10
214.039922
 20
74.606556
 30
0.0
 11
207.427861
 21
-5.706401
 31
0.0
  0
ARC
  5
E2
100
AcDbEntity
  8
LAYER_1
  6
CONTINUOUS
 62
     7
100
AcDbCircle
 10
169.861516
 20
0.995137
 30
0.0
 40
38.159416
210
0.0
220
0.0
230
1.0
100
AcDbArc
 50
320.970917
 51
349.885284
  0
LINE
  5
E3
100
AcDbEntity
  8
LAYER_1
  6
CONTINUOUS
 62
     7
100
AcDbLine
 10
199.504765
 20
-23.034404
 30
0.0
 11
173.341924
 21
5.06667
 31
0.0
  0
LINE
  5
E4
100
AcDbEntity
  8
LAYER_1
  6
CONTINUOUS
 62
     7
100
AcDbLine
 10
173.341924
 20
5.06667
 30
0.0
 11
179.326786
 21
74.72057
 31
0.0
  0
LINE
  5
E5
100
AcDbEntity
  8
LAYER_1
  6
CONTINUOUS
 62
     7
100
AcDbLine
 10
179.326786
 20
74.72057
 30
0.0
 11
214.039922
 21
74.606556
 31
0.0
  0
ARC
  5
E6
100
AcDbEntity
  8
LAYER_1
  6
CONTINUOUS
 62
     7
100
AcDbCircle
 10
213.142461
 20
-16.24937
 30
0.0
 40
4.25
210
0.0
220
0.0
230
1.0
100
AcDbArc
 50
180.0
 51
360.0
  0
ARC
  5
E7
100
AcDbEntity
  8
LAYER_1
  6
CONTINUOUS
 62
     7
100
AcDbCircle
 10
213.142461
 20
-16.24937
 30
0.0
 40
4.25
210
0.0
220
0.0
230
1.0
100
AcDbArc
 50
0.0
 51
180.0
  0
LINE
  5
E8
100
AcDbEntity
  8
LAYER_1
  6
CONTINUOUS
 62
     7
100
AcDbLine
 10
221.164921
 20
157.769703
 30
0.0
 11
214.951787
 21
82.586659
 31
0.0
  0
LINE
  5
E9
100
AcDbEntity
  8
LAYER_1
  6
CONTINUOUS
 62
     7
100
AcDbLine
 10
214.951787
 20
82.586659
 30
0.0
 11
179.953739
 21
82.529652
 31
0.0
  0
LINE
  5
EA
100
AcDbEntity
  8
LAYER_1
  6
CONTINUOUS
 62
     7
100
AcDbLine
 10
179.953739
 20
82.529652
 30
0.0
 11
185.539922
 21
151.613697
 31
0.0
  0
LINE
  5
EB
100
AcDbEntity
  8
LAYER_1
  6
CONTINUOUS
 62
     7
100
AcDbLine
 10
185.539922
 20
151.613697
 30
0.0
 11
214.609745
 21
178.061696
 31
0.0
  0
ARC
  5
EC
100
AcDbEntity
  8
LAYER_1
  6
CONTINUOUS
 62
     7
100
AcDbCircle
 10
179.570438
 20
155.537709
 30
0.0
 40
41.654327
210
0.0
220
0.0
230
1.0
100
AcDbArc
 50
3.071584
 51
32.733742
  0
ARC
  5
ED
100
AcDbEntity
  8
LAYER_1
  6
CONTINUOUS
 62
     7
100
AcDbCircle
 10
220.082402
 20
63.080433
 30
0.0
 40
4.25
210
0.0
220
0.0
230
1.0
100
AcDbArc
 50
180.0
 51
360.0
  0
ARC
  5
EE
100
AcDbEntity
  8
LAYER_1
  6
CONTINUOUS
 62
     7
100
AcDbCircle
 10
220.082402
 20
63.080433
 30
0.0
 40
4.25
210
0.0
220
0.0
230
1.0
100
AcDbArc
 50
0.0
 51
180.0
  0
ARC
  5
EF
100
AcDbEntity
  8
LAYER_1
  6
CONTINUOUS
 62
     7
100
AcDbCircle
 10
223.242559
 20
93.600514
 30
0.0
 40
4.25
210
0.0
220
0.0
230
1.0
100
AcDbArc
 50
180.0
 51
360.0
  0
ARC
  5
F0
100
AcDbEntity
  8
LAYER_1
  6
CONTINUOUS
 62
     7
100
AcDbCircle
 10
223.242559
 20
93.600514
 30
0.0
 40
4.25
210
0.0
220
0.0
230
1.0
100
AcDbArc
 50
0.0
 51
180.0
  0
ARC
  5
F1
100
AcDbEntity
  8
LAYER_1
  6
CONTINUOUS
 62
     7
100
AcDbCircle
 10
229.242559
 20
167.840504
 30
0.0
 40
4.25
210
0.0
220
0.0
230
1.0
100
AcDbArc
 50
180.0
 51
360.0
  0
ARC
  5
F2
100
AcDbEntity
  8
LAYER_1
  6
CONTINUOUS
 62
     7
100
AcDbCircle
 10
229.242559
 20
167.840504
 30
0.0
 40
4.25
210
0.0
220
0.0
230
1.0
100
AcDbArc
 50
0.0
 51
180.0
  0
TEXT
  5
F5
100
AcDbEntity
  8
WALLS
  6
CONTINUOUS
 62
     7
100
AcDbText
 10
324.09
 20
67.02
 30
0.0
 40
15.0
  1
9" DIGITS
 41
0.61
  7
ROMANS
210
0.0
220
0.0
230
1.0
100
AcDbText
  0
DIMENSION
  5
107
100
AcDbEntity
  8
DIMENSIONS
  6
CONTINUOUS
 62
     4
100
AcDbDimension
  2
*D0
 10
-354.107783
 20
253.87046
 30
0.0
 11
-251.605
 21
263.86999
 31
0.0
 70
   160
  3
MSADIM
100
AcDbAlignedDimension
 13
-149.107661
 23
199.67046
 33
0.0
 14
-354.107783
 24
199.67046
 34
0.0
100
AcDbRotatedDimension
  0
DIMENSION
  5
114
100
AcDbEntity
  8
DIMENSIONS
  6
CONTINUOUS
 62
     4
100
AcDbDimension
  2
*D1
 10
-149.107661
 20
253.87046
 30
0.0
 11
-16.615
 21
263.86999
 31
0.0
 70
   160
  3
MSADIM
100
AcDbAlignedDimension
 13
115.892217
 23
199.670582
 33
0.0
 14
-149.107661
 24
199.67046
 34
0.0
100
AcDbRotatedDimension
  0
ENDSEC
  0
SECTION
  2
OBJECTS
  0
DICTIONARY
  5
19
100
AcDbDictionary
  3
ACAD_GROUP
350
1A
  3
ACAD_MLINESTYLE
350
1B
  0
DICTIONARY
  5
1A
102
{ACAD_REACTORS
330
19
102
}
100
AcDbDictionary
  0
DICTIONARY
  5
1B
102
{ACAD_REACTORS
330
19
102
}
100
AcDbDictionary
  3
STANDARD
350
1C
  0
MLINESTYLE
  5
1C
102
{ACAD_REACTORS
330
1B
102
}
100
AcDbMlineStyle
  2
STANDARD
 70
     0
  3

 62
     0
 51
90.0
 52
90.0
 71
     2
 49
0.5
 62
   256
  6
BYLAYER
 49
-0.5
 62
   256
  6
BYLAYER
  0
ENDSEC
  0
EOF
